PCEVA,PC绝对领域,探寻真正的电脑知识
开启左侧

买个电视盒子求推荐

[复制链接]
乘风追路 发表于 2020-10-17 14:48 | 显示全部楼层 |阅读模式
点击数:5530|回复数:28
坐标河北,小区电视信号转交物业开始收费120元/年/台,感觉不如买个盒子看,反正网络现成的,求推荐!
悲痛莫名 发表于 2020-10-17 15:25 | 显示全部楼层
没有预算和需求么
乘风追路  楼主| 发表于 2020-10-17 18:11 | 显示全部楼层
悲痛莫名 发表于 2020-10-17 15:25
没有预算和需求么

这玩意有啥需求,能联网看电视节目,能投屏就好了,最好广告少,价格不要太贵就行!300以内价格便宜少折腾的就好
来自苹果客户端来自苹果客户端
xdd6622 发表于 2020-10-17 18:11 | 显示全部楼层
地面数字波不香吗?完全免费不依赖网络
乘风追路  楼主| 发表于 2020-10-17 18:12 | 显示全部楼层
xdd6622 发表于 2020-10-17 18:11
地面数字波不香吗?完全免费不依赖网络

卫星锅吗?非法吧!我家网是现成的,

来自苹果客户端来自苹果客户端
xdd6622 发表于 2020-10-17 18:17 | 显示全部楼层
乘风追路 发表于 2020-10-17 18:12
卫星锅吗?非法吧!我家网是现成的,

啥卫星锅,你搞错概念了,这是国家推行的免费电视收看手段,由各个地方地面电视信号发射塔发射数字电视信号,完全取代以前的模拟电视信号
xdd6622 发表于 2020-10-17 18:19 | 显示全部楼层
100~200元一套设备,虽然只能收10多个台,完全满足基本收视要求
悲痛莫名 发表于 2020-10-17 18:27 | 显示全部楼层
乘风追路 发表于 2020-10-17 18:11
这玩意有啥需求,能联网看电视节目,能投屏就好了,最好广告少,价格不要太贵就行!300以内价格便宜少折 ...

300左右的预算的话 可以考虑一下外贸盒子
乘风追路  楼主| 发表于 2020-10-17 18:58 | 显示全部楼层
悲痛莫名 发表于 2020-10-17 18:27
300左右的预算的话 可以考虑一下外贸盒子

推荐个具体的,不折腾,稳定
来自苹果客户端来自苹果客户端
红色狂想 发表于 2020-10-17 22:03 | 显示全部楼层
自从在隔壁见到有人说apple TV 4K + infuse,我这心里就长草了,还折腾KODI干啥,花钱就是给力,infuse的海报墙真是强大好用,如果再结合梯子,绝对是私人家庭影院的最佳解决方案!
dubai 发表于 2020-10-18 09:05 | 显示全部楼层
我不经常看电视,现在不上班了。偶尔看看新闻等也是当背景音乐在听。
用淘汰了的7寸手机。安装电视家,经常看的也就央视13频道的新闻和央视9频道的纪录节目。
想看大电视还可以把手机接大电视上看。
电视机常年不开机。
根本不用额外花钱。
尊称 发表于 2020-10-18 10:14 | 显示全部楼层
dubai 发表于 2020-10-18 09:05
我不经常看电视,现在不上班了。偶尔看看新闻等也是当背景音乐在听。
用淘汰了的7寸手机。安装电视家,经常 ...

http://tv.cctv.com/cctv13/?spm=C ... qPh.EYq0LGFLODJm.19


现在网络媒体央视发展的最靠前,btv还不见很好的直播。
DoctorX99 发表于 2020-10-18 10:42 | 显示全部楼层
xdd6622 发表于 2020-10-17 18:19
100~200元一套设备,虽然只能收10多个台,完全满足基本收视要求

你不说我都不知道内地这边有地波了,地波其实是最好的解决手段,无奈各种利益链非要搞什么电视盒子,我都以为不会上地波了,香港就是走地波的,电视内置接收,方便,而且人家那高清是真的高清,我们这边,哎!
来自安卓客户端来自安卓客户端
DoctorX99 发表于 2020-10-18 10:43 | 显示全部楼层
红色狂想 发表于 2020-10-17 22:03
自从在隔壁见到有人说apple TV 4K + infuse,我这心里就长草了,还折腾KODI干啥,花钱就是给力,infuse的海 ...

我就是一直在等新款,现在入4K我感觉就是49年入国军
来自安卓客户端来自安卓客户端
尊称 发表于 2020-10-18 14:52 | 显示全部楼层
本帖最后由 尊称 于 2020-10-18 15:03 编辑
xdd6622 发表于 2020-10-17 18:17
啥卫星锅,你搞错概念了,这是国家推行的免费电视收看手段,由各个地方地面电视信号发射塔发射数字电视信 ...

@DoctorX99

现在老的入户闭路线信噪比还不好呢,线路几十年一贯制了,过去频道只是那些模拟的,现在去掉一些频道增加数字频道,对线路信噪比要求高很多,我过去拿机顶盒测过,跟歌华过来的拿的测量仪一样,大概50%多(靠记忆不一定很准,歌华工也说都是这样,本来我想让他给换换线路的),室内线路如果差点或者增加多个一转二,就肯定不靠谱了。

从那以后就换了联通的iptv,用好几年了。今年还发晕买了vip了,结果发现不能回看vip不说,平时基本不看,真实闲的了。

地面微波传送数字信号还能靠谱吗?现在没有人用室外天线了,如果用得要天线。另一个考虑,不知道有几个频道,如果仅仅央视的几个频道,还不如直接看央视网站的直播和回看。

红色狂想 发表于 2020-10-18 18:00 | 显示全部楼层
DoctorX99 发表于 2020-10-18 10:43
我就是一直在等新款,现在入4K我感觉就是49年入国军

新款会不会缩水+阉割?你等到了告诉我一声
DoctorX99 发表于 2020-10-18 22:38 | 显示全部楼层
尊称 发表于 2020-10-18 14:52
@DoctorX99

现在老的入户闭路线信噪比还不好呢,线路几十年一贯制了,过去频道只是那些模拟的,现在去掉 ...

我也是用电信的IPTV有3年多了吧,感觉真的挺好用再也不想用广电了(除了偶尔花屏),至于地波靠不靠谱,我看过之后感觉很好啊,但是不确定频道多了之后是不是就效果打折了,因为有亲人在香港,所以去过香港体验过,2017年的时候在迪士尼的酒店有开过电视,怎么说呢,画质我随便贴一个J2电视台的源码视频的信息吧,感觉这种清晰度我是挺满意的,据我了解香港也是免费电视台走地波,收费台好像也是有盒子之类的,不太了解,亲戚家也是看免费台就够了。对了住深圳的话只要靠近香港也可以买设备收地波看那边的电视台
Format                         : MPEG-TS
Format profile                 : No PAT/PMT
File size                      : 5.55 GiB
Duration                       : 2 h 31 min
Overall bit rate               : 5 227 kb/s

Video
ID                             : 821 (0x335)
Format                         : AVC
Format/Info                    : Advanced Video Codec
Format profile                 : High@L4
Format settings                : CABAC / 4 Ref Frames
Format settings, CABAC         : Yes
Format settings, Reference fra : 4 frames
Format settings, GOP           : M=3, N=12
Duration                       : 2 h 31 min
Bit rate                       : 4 581 kb/s
Width                          : 1 920 pixels
Height                         : 1 080 pixels
Display aspect ratio           : 16:9
Frame rate                     : 25.000 FPS
Standard                       : Component
Color space                    : YUV
Chroma subsampling             : 4:2:0
Bit depth                      : 8 bits
Scan type                      : Interlaced
Scan type, store method        : Separated fields
Scan order                     : Top Field First
Bits/(Pixel*Frame)             : 0.088
Stream size                    : 4.86 GiB (88%)
Color range                    : Limited
Color primaries                : BT.709
Transfer characteristics       : BT.709
Matrix coefficients            : BT.709

Audio #1
ID                             : 822 (0x336)
Format                         : AC-3
Format/Info                    : Audio Coding 3
Commercial name                : Dolby Digital
Duration                       : 2 h 31 min
Bit rate mode                  : Constant
Bit rate                       : 192 kb/s
Channel(s)                     : 2 channels
Channel layout                 : L R
Sampling rate                  : 48.0 kHz
Frame rate                     : 31.250 FPS (1536 SPF)
Compression mode               : Lossy
Delay relative to video        : -947 ms
Stream size                    : 209 MiB (4%)
Service kind                   : Complete Main

Audio #2
ID                             : 823 (0x337)
Format                         : AC-3
Format/Info                    : Audio Coding 3
Commercial name                : Dolby Digital
Duration                       : 2 h 31 min
Bit rate mode                  : Constant
Bit rate                       : 192 kb/s
Channel(s)                     : 2 channels
Channel layout                 : L R
Sampling rate                  : 48.0 kHz
Frame rate                     : 31.250 FPS (1536 SPF)
Compression mode               : Lossy
Delay relative to video        : -947 ms
Stream size                    : 209 MiB (4%)
Service kind                   : Complete Main


DoctorX99 发表于 2020-10-18 22:40 | 显示全部楼层
红色狂想 发表于 2020-10-18 18:00
新款会不会缩水+阉割?你等到了告诉我一声

新款哪有缩水的道理,只有加强啊,各种爆料都说要上A12X呢,现款是A10X,所以我才出了Shield TV 2017等新款的ATV,结果回血的钱都快花完了新款都没出,该不会要等到明年吧?
ma1987417 发表于 2020-10-19 16:16 | 显示全部楼层
买个能破解、能刷机的就好,装手机版的软件随便看。。。默认是只能装TV版的
红色狂想 发表于 2020-10-19 23:58 | 显示全部楼层
DoctorX99 发表于 2020-10-18 22:40
新款哪有缩水的道理,只有加强啊,各种爆料都说要上A12X呢,现款是A10X,所以我才出了Shield TV 2017等新 ...

那也得看是什么企业的产品了,要不怎么会有人说十三香呢?SONY的电视机就是一代比一代差。。。你估计新款ATV上市会是啥价,老款现在还卖1000左右呢,新款岂不是要上2000?
您需要登录后才可以回帖 登录 | 注册

本版积分规则

快速回复 返回顶部