PCEVA,PC绝对领域,探寻真正的电脑知识
开启左侧

还有没有这种好声儿?

[复制链接]
尊称 发表于 2018-7-6 16:48 | 显示全部楼层 |阅读模式
点击数:780|回复数:19
1.png
0_调整大小.png
2_调整大小.png

这场音乐会,我估计很多人都听过蓝光盘,还有没有这级别的好声儿?@印第安纳琼斯


gxh5720 发表于 2018-7-6 22:00 | 显示全部楼层
好资源要分享
来自安卓客户端来自安卓客户端
尊称  楼主| 发表于 2018-7-7 12:09 | 显示全部楼层

这都是十年前的资源,你搜搜呗,有就有了。我哪有现成的?
尊称  楼主| 发表于 2018-7-7 12:12 | 显示全部楼层

[K®]-Andrea Bocelli - Vivere Live in Tuscany (2007) BD25.rar (19.84 GB)


看这个能下载不?
尊称  楼主| 发表于 2018-7-8 07:31 | 显示全部楼层
看来听过这声儿的人不多呀。
印第安纳琼斯 发表于 2018-7-8 15:42 | 显示全部楼层
歌剧确实好,不过我现在沉迷网络直播互动。
尊称  楼主| 发表于 2018-7-8 17:03 | 显示全部楼层
印第安纳琼斯 发表于 2018-7-8 15:42
歌剧确实好,不过我现在沉迷网络直播互动。

这哪是歌剧呀,经典跟现代的交融。

关键在好声二字。
tommycai 发表于 2018-7-9 15:19 | 显示全部楼层
随便去音乐厅听一场正儿八经的歌剧/清唱剧都比这个强
尊称  楼主| 发表于 2018-7-9 17:00 | 显示全部楼层
tommycai 发表于 2018-7-9 15:19
随便去音乐厅听一场正儿八经的歌剧/清唱剧都比这个强

没觉着。


你这是在歪楼,说的资源
印第安纳琼斯 发表于 2018-7-9 21:08 | 显示全部楼层
直播也有好声音,听的话我私信你。
尊称  楼主| 发表于 2018-7-9 21:23 | 显示全部楼层
本帖最后由 尊称 于 2018-7-9 21:24 编辑
tommycai 发表于 2018-7-9 15:19
随便去音乐厅听一场正儿八经的歌剧/清唱剧都比这个强

一个好声儿,来自天生的好嗓、文化素养、文化流派、演绎设计,滋润、谦虚、和谐等


国内那三个男高音满世界唱,我就不喜欢,我不认为那是好声儿。普及的功德我认可
尊称  楼主| 发表于 2018-7-9 21:30 | 显示全部楼层

链接: https://pan.baidu.com/s/1JossfBKNq8104Bh8A9A4OA 密码: j3jk

波切利类似的音乐电驴能搜到,我的云盘里发现一个,试试吧
gxh5720 发表于 2018-7-9 23:43 | 显示全部楼层
尊称 发表于 2018-7-9 21:30
链接: https://pan.baidu.com/s/1JossfBKNq8104Bh8A9A4OA 密码: j3jk

波切利类似的音乐电驴能搜到,我的 ...


来自安卓客户端来自安卓客户端
atmosphere 发表于 2018-7-9 23:56 | 显示全部楼层
蓝光封装的音频码率能比普通的视频320k高很多?
来自安卓客户端来自安卓客户端
尊称  楼主| 发表于 2018-7-10 00:02 | 显示全部楼层
atmosphere 发表于 2018-7-9 23:56
蓝光封装的音频码率能比普通的视频320k高很多?

我没注意,remux的,听着很好,但现场的缺点就是不能一贯如一,嗓子会累。

不过我说的类似其它好声音,不是讲波切利,他的都有。
来自苹果客户端来自苹果客户端
tommycai 发表于 2018-7-10 11:08 | 显示全部楼层
尊称 发表于 2018-7-9 21:23
一个好声儿,来自天生的好嗓、文化素养、文化流派、演绎设计,滋润、谦虚、和谐等

两个楼一起回了

你看你发出的是LIVE的资源,不管什么设备,都不可能100%还原现场对吧?最终极的HIFI不应该是走进现场,或者自己成为现场的一部分吗?有条件的话哪位音乐爱好者不愿意去现场聆听自己喜爱的作品呢?

哪三个国内的男高音?包含廖昌永吗?现在在回上音管事儿了,早就不上台了。同台的男高音,年轻的李梅里不算出彩的,年长一些的也不怎么有名,但基本水准还是可以保障的,男低音里王立夫倒是不错。二线城市里,湖州,天津,无锡,杭州,苏州的音乐厅每年少说也有一两场值得期待的演出,一线城市就更不用说了。ANDREA BOCELI只能算是入门级,好比市面上能买到的瓶装茶饮料,有条件的话还是泡茶喝吧。


尊称  楼主| 发表于 2018-7-10 11:25 | 显示全部楼层
tommycai 发表于 2018-7-10 11:08
两个楼一起回了

你看你发出的是LIVE的资源,不管什么设备,都不可能100%还原现场对吧?最终极的HIFI不应 ...

这种讨论已经超出好声儿的范畴。简单地说就是资源,复杂懒得说。

说起人,廖昌永还真是不错的,只是作品不与时俱进,没有新的作品。我说的那三个是戴玉强、莫华伦、魏松他们。


说起好声儿,不能不提创新的雷佳,由于听跨界歌手,知道了雷佳唱的女儿情,分享一下
尊称  楼主| 发表于 2018-7-10 11:28 | 显示全部楼层
本帖最后由 尊称 于 2018-7-10 12:27 编辑
atmosphere 发表于 2018-7-9 23:56
蓝光封装的音频码率能比普通的视频320k高很多?

General
ID                             : 0 (0x0)
Complete name                  : Andrea.Bocelli.Vivere.Live.In.Tuscany.Blu-ray.REMUX.1080i.H264.LPCM.disk1.ts
Format                         : MPEG-TS
File size                      : 4.30 GiB
Duration                       : 25 min 48 s
Overall bit rate mode          : Variable
Overall bit rate               : 23.8 Mb/s

Video
ID                             : 4129 (0x1021)
Menu ID                        : 1 (0x1)
Format                         : AVC
Format/Info                    : Advanced Video Codec
Format profile                 : [url=mailto:\[email\]High@L4\.1\[\/email\]]\[email\]High@L4\.1\[\/email\][/url]
Format settings, CABAC         : Yes
Format settings, ReFrames      : 4 frames
Codec ID                       : 27
Duration                       : 25 min 48 s
Bit rate mode                  : Variable
Bit rate                       : 18.0 Mb/s
Maximum bit rate               : 30.0 Mb/s
Width                          : 1 920 pixels
Height                         : 1 080 pixels
Display aspect ratio           : 16:9
Frame rate                     : 29.970 (30000/1001) FPS
Standard                       : NTSC
Color space                    : YUV
Chroma subsampling             : 4:2:0
Bit depth                      : 8 bits
Scan type                      : MBAFF
Scan type, store method        : Interleaved fields
Scan order                     : Top Field First
Bits/(Pixel*Frame)             : 0.290
Stream size                    : 3.25 GiB (76%)
Color range                    : Limited
Color primaries                : BT.709
Transfer characteristics       : BT.709
Matrix coefficients            : BT.709

Audio
ID                             : 4135 (0x1027)
Menu ID                        : 1 (0x1)
Format                         : PCM
Format settings, Endianness    : Big
Format settings, Sign          : Signed
Muxing mode                    : Blu-ray
Codec ID                       : 128
Duration                       : 25 min 48 s
Bit rate mode                  : Constant
Bit rate                       : 4 608 kb/s
Channel(s)                     : 6 channels
Channel positions              : Front: L C R, Side: L R, LFE
Sampling rate                  : 48.0 kHz
Bit depth                      : 16 bits
Stream size                    : 851 MiB (19%)
Language                       : English

LPCM的,怪不得音质好。
尊称  楼主| 发表于 2018-7-10 12:04 | 显示全部楼层
印第安纳琼斯 发表于 2018-7-9 21:08
直播也有好声音,听的话我私信你。


选个试试呗   …………

atmosphere 发表于 2018-7-10 20:16 | 显示全部楼层
尊称 发表于 2018-7-10 11:28
General
ID                             : 0 (0x0)
Complete name                  : Andrea.Bocelli.Vi ...

4068 十倍了啊 666
您需要登录后才可以回帖 登录 | 注册

本版积分规则

快速回复 返回顶部